#TITLE:Mr. Simple;
#SUBTITLE:;
#ARTIST:Super Junior;
#TITLETRANSLIT:;
#SUBTITLETRANSLIT:;
#ARTISTTRANSLIT:;
#CREDIT:;
#BANNER:banner.jpg;
#BACKGROUND:bg.jpg;
#LYRICSPATH:;
#CDTITLE:;
#MUSIC:Super Junior - Mr Simple.ogg;
#OFFSET:-3.688;
#SAMPLESTART:74.980;
#SAMPLELENGTH:29.980;
#SELECTABLE:YES;
#BPMS:0.000=128.000;
#STOPS:;
#BGCHANGES:;
// cache tags:
#FIRSTBEAT:8.000;
#LASTBEAT:231.500;
#SONGFILENAME:songs/SDO Latino/Super Junior - Mr Simple/step.sm;
#HASMUSIC:1;
#HASBANNER:1;
#MUSICLENGTH:112.584;
// end cache tags

//---------------dance-single - Andy----------------
#NOTES:
     dance-single:
     Andy:
     Medium:
     4:
     0.286,0.283,0.000,0.311,0.000,190.000,0.000,35.000,0.000,0.000:
0000
0000
0000
0000
,
0000
0000
0000
0000
,
1000
0100
0100
0100
,
0010
0001
1000
1000
,
0001
0100
0100
0100
,
0010
1000
0001
1000
,
1000
0100
0100
0100
,
0010
0001
1000
0001
,
0001
0100
0100
0100
,
0010
1000
0001
0001
,
1000
0100
1000
0001
,
0010
0010
0001
0001
,
2000
3000
0000
0200
,
1300
0000
0000
2000
,
3001
0001
0100
0100
,
0001
1000
0100
2000
,
3001
0000
0000
0020
,
0031
0000
0000
1000
,
0010
0100
0100
0100
,
0001
1000
0002
0003
,
0010
0100
0100
0100
,
1000
0001
2000
3000
,
0010
1000
0001
0100
,
0010
0100
0001
1000
,
0001
0001
1000
1000
,
0010
0010
0020
0030
,
2000
3000
0200
0300
,
0002
0003
0020
0030
,
1000
0000
0000
0002
,
1003
0000
0000
1000
,
0002
0003
0200
0300
,
2000
3000
0020
0030
,
0001
0000
0000
1000
,
0001
0020
0032
0003
,
1000
0100
0100
0100
,
1000
0001
1000
1000
,
0001
0100
0100
0100
,
0001
1000
0010
0010
,
1000
0100
0100
0100
,
1000
0001
0010
0010
,
0001
0100
0100
0100
,
0001
1000
0001
1000
,
1000
0100
0001
0100
,
1000
0100
0001
0010
,
0001
0100
1000
0100
,
0001
0001
1000
1000
,
0001
0100
1000
0100
,
0001
0100
1000
0010
,
1000
0100
0001
0100
,
1000
1000
0001
0001
,
1000
0200
0000
0010
,
0320
0000
0030
0000
0002
0003
2000
3000
,
0001
0200
0000
0010
,
0320
0000
0030
0000
2000
3000
2000
3000
,
0001
0200
0000
0010
,
0320
0000
0030
0000
2000
3000
0002
0003
,
1000
0200
0000
0010
,
0320
0000
0030
0000
0002
0003
2000
3000
;

//---------------dance-single - Andy----------------
#NOTES:
     dance-single:
     Andy:
     Easy:
     3:
     0.225,0.231,0.000,0.329,0.000,140.000,0.000,37.000,0.000,0.000:
0000
0000
0000
0000
,
0000
0000
0000
0000
,
2000
3000
0000
0000
0100
0000
0000
0000
,
0100
0000
0010
0010
,
0002
0003
0000
0000
0100
0000
0000
0000
,
0100
0000
0010
0010
,
2000
3000
0000
0000
1000
0000
0000
0000
,
0001
0000
0001
0010
,
0002
0003
0000
0000
0001
0000
0000
0000
,
1000
0000
1000
0010
,
1000
0000
0100
0000
,
1000
1000
0100
0100
,
0020
0000
0030
0100
,
0020
0000
0030
0001
,
1000
0000
1000
0000
,
0001
0001
0100
0100
,
0020
0000
0030
1000
,
0020
0000
0030
1000
,
0001
0000
0010
0000
,
0100
1000
0100
0000
,
1000
0000
0010
0000
,
0100
0001
0100
0000
,
0001
0000
0010
0000
,
1000
0000
0010
0000
,
0001
0000
0001
0000
,
1000
0001
1000
0000
,
0020
0000
0230
0000
,
0302
0000
2003
0000
,
3200
0000
0300
2000
,
3200
0000
0300
0000
,
0020
0000
0032
0000
,
2003
0000
3020
0000
,
0230
0000
0300
0010
,
0100
0001
1000
0000
,
0001
0100
0001
0100
,
0010
0010
0010
0010
,
1000
0100
1000
0100
,
0010
0010
0010
0010
,
0001
0100
0001
0100
,
0010
1000
0010
1000
,
1000
0100
1000
0100
,
0010
0001
0010
0001
,
0002
0000
0103
0000
,
2000
0000
3100
0000
,
0002
0000
0103
0000
,
2000
0000
3020
0000
,
2030
0000
3100
0000
,
0002
0000
0103
0000
,
2000
0000
3100
0000
,
0002
0000
0023
0000
,
0230
0000
0000
0010
,
0310
0000
0001
0000
,
0200
0000
0000
0010
,
0310
0000
1000
0000
,
0200
0000
0000
0010
,
0310
0000
0001
0000
,
0200
0000
0000
0010
,
0320
0000
0030
0000
2000
3000
0002
0003
;
